WK綜合論壇, WK综合论坛

查看:121 回復:1 發表於 2021-7-22 05:02:13
本主題由 212love 於 6 天前 解除高亮
累計簽到:2133 天
連續簽到:1 天
發表於 2021-7-21 11:51:31 | 顯示全部樓層 |閱讀模式
VIP精品區,資源無限好賺金任務區,輕松賺金幣
加入VIP,享受高級特權宣傳賺金又升級,超級棒

我沒談完的那場戀愛.Between.Us., 2021.[MKV / 10.84G] 國語 2160p [複製鏈接]

影視分享
分類: 電影
題材: 愛情 
地區: 中港台 
語言: 國語 
格式: MKV 
年份: 2021
資源: BT资源
* r' H1 w. D& [9 _
8 F7 j1 v; [$ L' O, M& W
◎译  名 我没谈完的那场恋爱 / 不说再见: `- h; D& ?8 @% |: Q/ G# d2 N
◎年  代 2021
! c9 N4 C! g1 W" g◎产  地 中国大陆9 }) `. O$ A/ m$ a
◎类  别 爱情
+ x6 T9 E1 a# f◎语  言 汉语普通话
  B5 Q& R& E3 d; {# a$ Z6 m. j◎上映日期 2021-06-25(中国大陆)
  D$ ]  w7 f3 P3 G$ p◎IMDb链接 https://www.imdb.com/title/tt11662974/
4 i9 I3 R  k" d1 v1 I5 o2 o/ G◎豆瓣评分 4.0/10 (3177人评价)3 O3 }$ c. T1 r
◎豆瓣链接 https://movie.douban.com/subject/35442444/
3 w7 U3 Q% G2 J. @◎片  长 97分钟! n( |8 N- f' ]0 I7 u
◎导  演 赵宇 Yu Zhao (id:1320916)
- F5 v# N" O& q/ c9 ?1 F◎编  剧 赵宇 Yu Zhao (id:1320916)
5 N5 e0 Z3 v- H' Q4 V      陈梦怡 (id:1457200)
2 K  Q) X" L! P' l$ G/ l      李绚彦 Xuanyan Li (id:1335262)
0 k) R! y: J4 Y◎演  员 于文文 Kelly Yu (id:1342252)4 J6 @$ s! i+ a& r. N; Y
      宋宁峰 Ningfeng Song (id:1313368); M; R: Z& C* w7 x
      刘琦 Mulligan liu (id:1398572)7 m) ]" k- Z! S% \
      李博 Bo Li (id:1456618). o3 p0 L% M6 \3 @% a, Y
      刘奕 Yi Liu (id:1335268)) x" x- n- s& b7 p. u! L% f& h1 w
      尹菲 Fei Yin (id:1350802)
; @. E' l. z+ d1 d% }+ U: r( ?0 P      曹力 Li Cao (id:1274714)
: e; p) h1 u% Y) i. N" ?6 b+ R0 t      佘南南 Nannan She (id:1342105)
* K4 V2 l; j" E# P. @' P      殷成阳 Chengyang Yin (id:1408013)  P) U9 Y$ A. m

# h! Y8 k8 U% n7 E◎标  签 爱情 / 遗憾 / 音乐 / 梦想 / 国产 / 2021 / 渐冻症 / 怀旧7 J# K1 f2 O# H5 f4 t5 Q

. [9 ]" S, B$ U0 p) b! l◎简  介: \$ I. O0 R$ U+ N$ l
  本片讲述了两个千差万别却同样迷茫的年轻音乐人,一个是多年打拼,事业毫无起色,又屡遭生活暴击的和声歌手珊妮,一个是身患重病,隐姓埋名等待死亡降临的前摇滚乐手董东,对生命感到绝望的二人在自我了断时相遇......自杀计划流产,他们的生活也因彼此的出现发生改变。
) z* }" m" o; R1 g+ U( \3 u; X另外一个时空的故事,从珊妮意外发现的一本1970年代的日记中铺陈开来,一段没有下文的悲伤爱情竟然在珊妮的努力下尘埃落定。跟音乐、爱情和人生有关的种种,让珊妮与董东的相遇愈发神奇。千丝万缕中,是否每一种爱都能开花结果? 他们能否找到继续爱这个世界的理由?
8 O. U8 V: M8 ^& ?
9 o. Z6 P8 Z/ lGeneral
4 K3 w4 w% s' M: H9 G) c: S3 K, xComplete name : 我没谈完的那场恋爱.Between Us 2021 WEB-DL 2160p H265 [email protected]
" q( b6 V* s1 pFormat : MPEG-49 ^+ {$ y. g4 j
Format profile : Base Media0 \- z& K' L# ~6 i) d3 ?
Codec ID : isom (isom/iso2/mp41)' b, _' s  ]3 w( ?3 d
File size : 10.8 GiB& ]' h7 p; E9 H$ g( s
Duration : 1 h 37 min! L- ^) }2 _* F" Y
Overall bit rate : 16.0 Mb/s
+ r4 ~( E, C5 W( IRecorded date : 2021-07-18T07:16:49.4348074+08:00
5 W  j9 t/ J7 L* }. b6 ^  [7 fWriting application : Lavf58.32.104
% B' ~% c! [, j; I! b, I4 z1 S8 ^( E1 {* w
Video3 w) I& h7 X- T& g5 d3 C: {
ID : 1+ r8 ~- ^  I7 F# X! F. D0 Y, f
Format : HEVC0 P: J3 V6 O2 [( K" }& U0 R# O
Format/Info : High Efficiency Video Coding; L0 _+ F. i1 A4 u0 S% k
Format profile : [email protected]@Main
! e& J: C. v1 z% i# cCodec ID : hev1  {5 z# t7 k! Q# p
Codec ID/Info : High Efficiency Video Coding
6 L! p/ z) F4 s$ v! n7 }# FDuration : 1 h 37 min
% j" H- {2 B9 y" @  _! |Bit rate : 15.8 Mb/s$ G; t% C6 U, E
Width : 3 840 pixels
9 y- ^4 y; I% V% o) L: J1 yHeight : 2 160 pixels
: `9 I6 j  [# B6 UDisplay aspect ratio : 16:9
/ z  n4 X1 S$ g6 G6 g% J. l- XFrame rate mode : Constant
. L+ \  @# h9 c1 fFrame rate : 24.000 FPS
2 @, M/ l- [% vColor space : YUV: N+ D  i( ^' k1 }  q2 j7 O
Chroma subsampling : 4:2:00 N5 b# I1 U0 s5 U7 l) P
Bit depth : 8 bits1 R' c8 ~* D. j( J) {$ z
Bits/(Pixel*Frame) : 0.079
6 u7 Q: J7 u' T: BStream size : 10.7 GiB (99%)- l2 Q( o/ {, d8 Q' ~
Codec configuration box : hvcC
: @; |# D% r& K1 z, n: Y' e0 u
" ^+ ]4 |' j3 W8 eAudio3 q. ]6 A( N# P
ID : 2+ }8 k! }7 v# q* j, a; M, n
Format : AAC LC# ?" h0 Z: M( o- C
Format/Info : Advanced Audio Codec Low Complexity
9 M/ u% w- ?4 s- \Codec ID : mp4a-40-2
! M( D7 K/ q* ODuration : 1 h 37 min9 V* }( R, B5 L3 N8 X
Bit rate mode : Constant* U% C" E8 z7 V& h* |
Bit rate : 192 kb/s6 L1 Z; `" t# L
Channel(s) : 2 channels
4 I! j$ T2 z2 z& `Channel layout : L R
+ R8 E. `3 Z9 \; W: ?0 ySampling rate : 44.1 kHz
% j" s+ X6 R4 \( j, m5 J: sFrame rate : 43.066 FPS (1024 SPF)7 E. l- ^% M! `# M
Compression mode : Lossy
# L7 N; }8 |4 z! pStream size : 132 MiB (1%)8 _# F3 E& J5 z8 K& S' f& ~  `
Default : Yes' d' n) W, m2 A0 d
Alternate group : 1
" J1 a4 P# \9 }" E4 k; M$ T2 e

) X" @/ r8 X2 _+ Y2 ?! N6 P
" O4 N" j! e) u+ z, u0 K  O

我沒談完的那場戀愛. MKV.torrent

31.82 KB, 下載次數: 23

累計簽到:70 天
連續簽到:70 天
發表於 2021-7-22 05:02:13 | 顯示全部樓層
VIP精品區,資源無限好賺金任務區,輕松賺金幣
加入VIP,享受高級特權宣傳賺金又升級,超級棒
本片講述了兩個千差萬別卻同樣迷茫的年輕音樂人跟音樂、愛情和人生有關的種種....耐人尋味 感謝樓主精采分享

回復樓主 親!! 早上好! 心底有WK、心情就會飛翔,心中要個希望、笑容就會清爽!

 分享同時學會感恩,一句感謝的話語,就是最大的支持!  歡迎交流討論
您需要登錄後才可以回帖 登錄 | 立即注册

本版積分規則

c重要聲明:本論壇是以即時上載言論的方式運作,WK論壇對所有言論的真實性、立場及版權等,不負任何法律責任。而一切言論只代表發佈者個人意見,並非本網站之立場,讀者及用戶務必自行判斷內容之真實性。 由於本論壇受到「即時上載言論」運作方式所規限,故不能完全監察所有言論,若讀者及用戶發現有內容出現「真實性、立場及版權」等問題,請聯絡我們:[email protected]論壇有權刪除任何言論(刪除前或不會作事先警告及通知)| SiteMap[網站地圖]

發表新帖 返回頂部